#TITLE:Boss Fight;
#SUBTITLE:;
#ARTIST:Terranigma;
#TITLETRANSLIT:;
#SUBTITLETRANSLIT:;
#ARTISTTRANSLIT:;
#CREDIT:;
#BANNER:;
#BACKGROUND:;
#LYRICSPATH:;
#CDTITLE:;
#MUSIC:Terranigma - Boss Fight (Arranged).mp3;
#OFFSET:-0.940;
#SAMPLESTART:100.000;
#SAMPLELENGTH:12.000;
#SELECTABLE:YES;
#BPMS:0.000=160.000;
#STOPS:;
#BGCHANGES:0.000=Terra=1.000=0=0=1,
99999=-nosongbg-=1.000=0=0=0 // don't automatically add -songbackground-
;
// cache tags:
#FIRSTBEAT:0.000;
#LASTBEAT:496.000;
#SONGFILENAME:Songs/My Creations/Terranigma - Boss Fight (Arranged)/Terranigma - Boss Fight (Arranged).sm;
#HASMUSIC:1;
#HASBANNER:0;
#MUSICLENGTH:177.005;
// end cache tags

//---------------dance-single - Copied from----------------
#NOTES:
     dance-single:
     Copied from:
     Beginner:
     1:
     0.209,0.290,0.023,0.062,0.000,244.000,4.000,11.000,0.000,0.000:
0001
0000
0000
0000
,
0000
0000
0000
0000
,
1000
0000
0000
0000
,
0000
0000
0000
0000
,
0001
0000
0000
1000
,
0000
0100
0010
0000
,
0000
0000
0000
0000
,
0000
0000
1000
0000
,
0000
0000
0000
0000
,
0000
0000
0001
0000
,
0000
0000
1000
0000
0000
0000
0000
0100
,
0000
0001
0000
0100
0000
0001
0000
0100
,
0000
0001
0000
0100
0000
0001
0000
1000
,
0000
0010
0000
1000
0000
0010
0000
1000
,
0000
0010
0000
1000
0000
0001
0000
0100
,
0000
0001
0000
0100
0000
0001
0000
0100
,
0000
0001
0000
0100
0000
1000
0000
0010
,
0000
1000
0000
0010
0000
1000
0000
0010
,
0000
1000
0000
0010
0000
0001
0000
0100
,
0010
0000
0000
0000
0000
0000
0000
0010
,
0001
0000
0000
1000
0100
0000
0000
0000
,
0000
0000
0000
0001
0010
0000
0000
0020
,
0000
0000
0000
0000
,
0000
0000
0000
0030
0000
0000
0000
2000
,
0000
0000
0000
0000
,
0000
0000
0000
0000
0000
3000
0000
0100
,
0000
0000
0000
0000
,
0000
0000
0000
0000
0000
0000
0000
1000
,
0000
0000
0000
0000
,
0000
0000
0000
0000
0000
0000
0000
0001
,
0000
0000
0000
0000
0000
0100
0000
0000
,
0000
0010
0000
0010
0000
0000
0000
0000
,
0000
0000
0000
0000
,
0000
0000
0000
1000
0000
0000
0000
0000
,
0000
0000
0000
0000
,
0000
0000
0000
0001
0000
0000
0000
0000
,
0000
0100
0000
0000
0000
0000
1000
0000
,
0000
0000
0100
0000
,
0000
0000
1000
0100
0010
0010
0000
0000
,
0010
0000
0000
0000
0010
0000
0100
0100
,
0000
0000
0010
0100
,
0000
0000
0000
0000
0001
0000
0000
0010
,
0010
0100
0200
0000
0000
0000
0300
0010
,
0000
0010
0000
0020
0000
0000
0000
0130
,
0000
0100
0000
0100
,
0200
0000
0000
0300
,
1001
0000
0000
0000
,
0000
0000
0000
0000
,
1000
0000
0000
0000
,
0000
0000
0000
0000
,
0001
0000
0000
0100
,
0000
0010
1000
0000
,
0000
0000
0000
0000
,
0000
0000
0001
0000
,
0000
0000
0000
0000
,
0000
0000
1000
0000
,
0000
0010
0000
0100
,
0000
0001
0000
1000
0000
0001
0000
0001
,
0000
0001
0000
1000
0000
0001
0000
0001
,
0000
1000
0000
0010
0000
0001
0000
0001
,
0000
0010
0000
0100
0000
0001
0000
0001
,
0000
0100
0000
0010
0000
0001
0000
0001
,
0000
1000
0000
0100
0000
0001
0000
0001
,
0000
0001
0000
0010
0000
0100
0000
1000
,
0000
0001
0000
0001
0000
0001
0000
0001
,
0000
0100
0000
0001
0000
0100
0000
0001
,
0000
1000
0000
0001
0000
1000
0000
0001
,
0000
0100
0000
0001
0000
0100
0000
0001
,
0000
0010
0000
0001
0000
0010
0000
0001
,
0000
0001
0000
0100
0000
0001
0000
0001
,
0000
0100
0000
0001
0000
0001
0000
1000
,
0000
0001
0000
0100
0000
0001
0000
0010
,
0000
0001
0000
0001
0000
0001
0000
0001
,
1000
0100
1000
0010
0000
0000
0000
0000
,
0001
0000
0001
0000
1000
0000
1000
0100
,
0010
0001
0000
0000
0000
0000
1000
0010
,
0000
0000
0010
1010
,
0001
1000
0010
1000
,
0100
1000
0010
1000
,
0001
1000
0010
1000
,
0100
0000
1000
0000
0001
0000
1000
1001
,
0000
0000
0000
0000
0000
0010
0000
0001
,
0000
0000
1000
0001
0000
0000
0000
0000
,
0000
0100
0000
0001
0000
0000
1000
0001
,
0000
0000
0000
0000
0000
1000
0000
0010
,
0000
0000
1000
0001
0000
0000
0000
0000
,
0000
0010
0000
0001
0000
0100
0020
0000
,
0000
0000
0000
0030
,
0000
0000
0000
0002
,
0000
0000
0000
0003
,
0000
0000
0000
0001
,
0000
0000
0000
0000
,
0000
0000
0000
1000
,
0000
0000
0000
0000
,
0000
0000
0000
0100
,
0000
0000
0000
0000
0010
0000
0000
0001
,
0000
0010
0000
0000
0000
0000
0000
0000
,
0000
0000
0000
0000
,
0000
1000
0000
0000
0000
0000
0000
0000
,
0000
0000
0000
0000
,
0000
0100
0000
0000
0000
0000
0000
0010
,
0000
0000
0000
0000
0000
0001
0000
0000
,
0000
0000
0000
0001
0000
0000
0000
0000
,
0000
0001
0010
0100
1000
0000
0000
0001
,
0000
0000
0000
1000
0000
1000
0001
0000
,
0000
1000
0001
0000
,
0000
0000
1000
0000
0000
0000
1000
0001
,
1000
2000
0000
0000
0000
3000
0001
0000
,
0100
0200
0000
0310
,
0000
1000
0000
0000
0000
0001
0000
0020
,
0000
0000
0000
0000
0000
0000
0030
1000
,
0000
0000
0000
0000
0000
0010
0000
0000
,
0000
0000
0000
0200
0000
0000
0000
0000
,
0000
0000
0000
0000
0000
0300
0000
0000
,
0000
1001
0000
0000
0000
0000
0000
0000
;

//---------------dance-single - Copied from Copied f----------------
#NOTES:
     dance-single:
     Copied from Copied f:
     Hard:
     1:
     0.450,0.451,0.475,0.282,0.000,423.000,84.000,50.000,16.000,1.000:
0001
0010
0010
0100
,
0100
0100
0100
0010
,
1010
0100
0100
1000
,
0101
0001
0100
0100
,
0002
0010
0100
1003
,
0000
0101
1010
0000
,
0010
0000
010M
0000
,
M010
0100
10M0
0001
,
0101
1000
0100
0010
,
0010
0000
0001
0000
0101
0000
0100
0100
,
0100
0010
0001
0000
0000
0000
0000
1010
,
0000
0001
0000
0100
0000
0011
0000
1000
,
0000
0010
0000
0101
0000
0001
0000
0110
,
0110
0110
0000
1000
0000
0010
0000
0001
,
0000
0100
0000
1001
0000
0010
1000
1000
,
0000
0100
0000
0001
0000
0010
0000
1000
,
0000
0010
0000
0001
0000
0100
0000
0010
,
0000
1000
0000
0100
0000
1000
0000
0001
,
0000
1000
0000
0100
0000
1000
1000
0100
,
1010
1000
1000
0100
0100
0000
0010
0010
,
0001
0000
0000
1000
0100
0000
1010
0000
,
0001
0000
0000
0101
0010
0000
1000
0022
,
0000
0000
0000
0033
0000
2200
0000
0000
,
0000
0000
3300
0010
0000
0010
0000
2010
,
0000
0000
0000
0000
0000
3000
0000
0220
,
0000
0000
0000
0000
0330
0000
0000
0101
,
0000
1000
0000
0000
0000
0100
0000
0010
,
0000
0000
0000
1010
0000
0001
0000
1001
,
0000
0000
0000
0100
0000
0010
0000
0001
,
0000
1000
0000
1000
0000
1100
0000
0001
,
0000
0100
0000
0100
0000
0100
0000
1000
,
0000
0010
0000
0010
0000
0010
0000
0000
,
0000
0001
0000
0010
0000
0100
0000
0010
,
0000
0100
0000
1001
0000
1001
0000
0001
,
0000
0010
0000
0100
0000
0010
0000
1000
,
1000
1000
0000
0002
0000
0100
0000
0000
,
0000
0103
0000
1000
0000
1000
0000
0000
,
0000
0010
0100
0010
,
0000
1000
0101
0010
0010
0000
1001
0000
,
0100
0000
0001
0000
0010
0000
0100
0101
,
0000
1000
0110
0100
,
0001
0000
0110
0000
0001
0010
0010
0010
,
0010
0100
2100
0200
0000
0000
0000
3301
,
0000
0010
0000
0020
0000
0000
0000
0130
,
0000
0000
0100
0000
0000
0001
0010
1000
,
0202
0000
0000
0303
,
1010
0100
1010
1001
,
0000
0000
0010
0000
0001
0000
1000
1000
,
1000
0101
0001
100M
,
01M0
100M
0000
0M10
,
M001
100M
01M0
01M0
,
100M
0010
1001
1001
,
0000
0101
0000
0100
,
0010
0001
0101
1000
,
0000
1100
0100
0010
,
1000
0001
1000
0110
,
0001
0010
1000
0110
,
0000
0201
0000
1000
0000
0001
0000
0001
,
0000
0301
0000
1020
0000
0001
0000
0001
,
0000
1030
0000
0210
0000
0001
0000
0001
,
0000
0310
0000
0120
0000
0001
0000
0001
,
0000
0130
0000
2010
0000
0001
0000
3001
,
0000
1020
0000
0100
0000
0001
0000
0001
,
0000
0031
0000
2010
0000
3100
0000
1000
,
0000
0201
0000
0001
0000
0001
0000
0301
,
0000
2100
0000
0001
0000
3100
0000
0201
,
0000
1000
0000
0001
0000
1300
0000
0021
,
0000
0100
0000
0001
0000
0130
0000
2001
,
0000
0010
0000
0001
0000
3010
0000
0201
,
0000
0301
0000
2100
0000
0001
0000
0001
,
0000
0100
0000
0001
0000
3001
0000
1020
,
0000
0001
0000
0130
0000
2001
0000
0010
,
0000
0001
3000
0021
0000
0001
0000
0031
,
1000
0100
1000
0020
0000
0000
0000
0030
,
0001
0000
0001
0000
1000
0000
1000
0100
,
0010
0201
0000
0000
0000
0300
1000
0020
,
0000
0030
0011
1010
,
0101
1010
0011
1010
,
0102
1000
0010
1003
,
0001
1000
0010
1000
,
0100
0000
1000
0000
0001
0000
1000
1001
,
0000
1000
0000
1000
0000
0010
0000
0001
,
0000
1000
1000
0001
0000
0001
0000
1000
,
0000
0100
0000
0001
0000
1000
1000
0001
,
0000
0000
0000
0001
0000
1000
0000
0011
,
0000
0000
1000
0011
1000
0100
0000
0010
,
0000
0010
0000
0001
0000
0100
0020
0000
,
0000
0000
2000
0000
,
0000
3000
0000
0032
,
0000
0000
0000
0200
,
0000
0000
0000
0000
0303
0000
0001
0010
,
0001
0000
1000
0100
1000
0000
0100
0000
,
0010
0000
0010
1100
,
1000
0100
1001
0010
0001
0000
0100
0000
,
0010
0000
0001
1000
0001
0000
0200
0000
,
0000
0300
2020
3030
,
0000
0010
0000
0101
0000
1000
0000
0100
,
0000
1001
0000
0100
0000
1010
0000
0001
,
0000
1100
0000
0000
0000
0001
0100
0001
,
0000
0000
0000
1000
0010
1000
0000
0000
,
0000
0100
1001
0000
0000
0000
0100
0010
,
0000
0000
0000
0000
0000
0001
0100
0000
,
0000
0000
0010
0001
0000
0000
0000
0000
,
0000
0001
0010
0100
1000
0000
0100
0000
,
0001
0000
0100
0000
1000
0000
0001
0100
,
0010
2000
0002
0000
,
0000
0000
3000
0000
0013
0000
1000
0001
,
1000
2000
00M0
0000
0M00
3000
00M1
0000
,
0100
0200
0000
0310
,
00M0
1100
0000
0000
0000
0011
0000
0020
,
0000
0200
0000
0000
0000
0000
0330
1000
,
0010
0001
0010
0000
1000
0010
0010
0100
,
0001
0010
0010
0200
0000
0020
0000
0000
,
0000
0000
0000
0000
0030
0300
0000
0000
,
0110
1001
0000
0000
0000
0000
0000
0000
;

//---------------dance-single - Copied from Copied f----------------
#NOTES:
     dance-single:
     Copied from Copied f:
     Medium:
     1:
     0.343,0.387,0.282,0.102,0.000,357.000,50.000,18.000,0.000,0.000:
0001
0000
1010
0000
,
0100
0000
0100
0011
,
1000
0000
0100
0000
,
0101
0000
0100
1100
,
0002
0000
0000
1003
,
0000
0100
1010
0000
,
0010
0000
1100
0000
,
0010
0100
1000
0000
,
0101
0000
0100
1000
,
0010
0000
0001
0100
,
0000
0000
1001
0000
0000
0000
0000
0010
,
0000
0001
0000
0100
0000
0001
0000
1000
,
0000
0010
0000
0100
0000
0001
0000
1000
,
0000
0100
0000
1000
0000
0010
0000
0001
,
0000
0100
0000
1000
0000
0010
0000
1000
,
0000
0100
0000
0001
0000
0010
0000
1000
,
0000
0010
0000
0001
0000
0100
0000
0010
,
0000
1000
0000
0100
0000
1000
0000
0001
,
0000
1000
0000
0100
0000
1000
0000
0100
,
0010
0000
0000
0000
0100
0000
0010
0010
,
0001
0000
0000
1000
0100
0000
0010
0000
,
0001
0000
0000
0001
0010
0000
1000
0020
,
0000
0000
0000
0030
0000
2000
0000
0000
,
0000
0000
3000
0000
0000
0010
0000
2000
,
0000
0000
0000
0000
0000
3000
0000
0020
,
0000
0000
0000
0000
0000
0030
0000
0100
,
0000
1000
0000
0000
0000
0100
0000
0010
,
0000
0000
0000
0010
0000
0001
0000
1000
,
0000
0000
0000
0100
0000
0010
0000
0000
,
0000
1000
0000
1000
0000
0100
0000
0001
,
0000
0100
0000
0000
0000
0100
0000
1000
,
0000
0010
0000
0010
0000
0000
0000
0000
,
0000
0001
0000
0010
0000
0100
0000
0010
,
0000
0000
0000
1000
0000
0000
0000
0001
,
0000
0010
0000
0100
0000
0010
0000
0000
,
0000
0000
0000
0001
0000
0100
0000
0000
,
0000
0100
0000
0000
0000
0000
1000
0000
,
0000
0010
0100
0000
,
0000
1000
0100
0010
0010
0000
1000
0000
,
0000
0000
0001
0000
0010
0000
0100
0100
,
0000
1000
0010
0100
,
0001
0000
0100
0000
0001
0000
0000
0010
,
0010
0100
0100
0200
0000
0000
0000
0301
,
0000
0010
0000
0020
0000
0000
0000
0130
,
0000
0000
0100
0000
0000
0000
0000
1000
,
0200
0000
0000
0300
,
1001
0100
0010
1001
,
0000
0010
0001
0000
,
1000
0100
0001
1000
,
0110
1000
0000
0110
,
0001
1000
0110
0100
,
1000
0010
1001
0000
,
0000
0101
0000
0000
,
0000
0000
0101
1000
,
0000
0100
1100
0010
,
0000
0001
1000
0100
,
0001
0010
1000
0110
,
0000
0001
0000
1000
0000
0011
0000
0001
,
0000
0011
0000
1000
0000
0011
0000
0001
,
0000
1000
0000
0010
0000
0011
0000
0001
,
0000
0010
0000
0100
0000
0011
0000
0001
,
0000
0100
0000
0010
0000
0011
0000
0001
,
0000
1000
0000
0100
0000
0011
0000
0001
,
0000
0011
0000
0010
0000
0100
0000
1000
,
0000
0011
0000
0001
0000
0011
0000
0001
,
0000
0100
0000
0001
0000
0100
0000
0001
,
0000
1100
0000
0001
0000
1000
0000
0001
,
0000
0100
0000
0011
0000
0100
0000
0001
,
0000
0010
0000
0001
0000
0010
0000
0101
,
0000
0001
0000
0100
0000
0001
0000
0001
,
0000
0100
0000
1001
0000
0001
0000
1000
,
0000
0001
0000
0100
0000
0001
0000
0010
,
0000
1001
0000
1001
0000
0001
0000
0001
,
1000
0100
1000
0010
0000
0000
0000
0000
,
0101
0000
0001
0000
1000
0000
1000
0100
,
0010
0001
0000
0000
0000
0000
1000
0010
,
0000
0000
0010
1010
,
0001
1000
0011
1000
,
0100
1000
0010
1000
,
0001
1000
0011
1000
,
0100
0000
1000
0000
0001
0000
1000
1001
,
0000
0000
0000
1000
0000
0010
0000
0001
,
0000
0000
1000
0011
0000
0001
0000
1000
,
0000
0100
0000
0001
0000
0000
1000
0001
,
0000
0000
0000
0001
0000
1000
0000
0010
,
0000
0000
1000
0001
1000
0000
0000
0000
,
0000
0110
0000
0001
0000
0100
0020
0000
,
0000
0030
2000
0000
,
0010
3000
0000
0002
,
0000
0100
0003
0200
,
0000
0001
0300
0001
,
0001
1000
1000
0100
,
0010
0000
0010
1100
,
1000
0001
0001
0100
,
0010
0001
0001
0200
,
0000
0300
0020
0030
,
0000
0010
0000
0100
0000
1000
0000
0100
,
0000
1000
0000
0100
0000
0010
0000
0001
,
0000
1000
0000
0000
0000
0101
0000
0011
,
0000
0000
0000
1100
0000
1010
0000
0000
,
0000
0100
0001
0000
0000
0000
0000
1010
,
0000
0000
0000
0000
0000
1001
0100
0000
,
0000
0000
0000
1001
0000
0000
0000
0000
,
0000
0001
0010
0100
1000
0000
0000
0000
,
0001
0000
0000
0000
1000
0000
0001
0100
,
0010
1000
0001
0000
,
0000
0000
0000
0000
0010
0000
1000
0001
,
1000
2000
0000
0000
0000
3000
0001
0000
,
0100
0200
0000
0310
,
0000
1000
0000
0000
0000
0001
0000
0020
,
0000
0000
0000
0000
0000
0000
0030
1000
,
0000
0001
0000
0000
0000
0010
0000
0100
,
0000
0000
0000
0200
0000
0000
0000
0000
,
0000
0000
0000
0000
0000
0300
0000
0000
,
0000
1001
0000
0000
0000
0000
0000
0000
;

//---------------dance-single - Copied from Copied f----------------
#NOTES:
     dance-single:
     Copied from Copied f:
     Easy:
     1:
     0.210,0.290,0.023,0.062,0.000,245.000,4.000,11.000,0.000,0.000:  // measure 1
0001
0000
0010
0000
,  // measure 2
0000
0000
0000
0000
,  // measure 3
1000
0000
0100
0000
,  // measure 4
0000
0000
0000
0000
,  // measure 5
0001
0000
0000
1000
,  // measure 6
0000
0100
0010
0000
,  // measure 7
0000
0000
0100
0000
,  // measure 8
0000
0000
1000
0000
,  // measure 9
0000
0000
0010
0000
,  // measure 10
0000
0000
0001
0000
,  // measure 11
0000
0000
1000
0000
0000
0000
0000
0100
,  // measure 12
0000
0001
0000
0100
0000
0001
0000
0100
,  // measure 13
0000
0001
0000
0100
0000
0001
0000
1000
,  // measure 14
0000
0010
0000
1000
0000
0010
0000
1000
,  // measure 15
0000
0010
0000
1000
0000
0001
0000
0100
,  // measure 16
0000
0001
0000
0100
0000
0001
0000
0100
,  // measure 17
0000
0001
0000
0100
0000
1000
0000
0010
,  // measure 18
0000
1000
0000
0010
0000
1000
0000
0010
,  // measure 19
0000
1000
0000
0010
0000
0001
0000
0000
,  // measure 20
0010
0000
0000
0000
,  // measure 21
0001
0000
0100
0000
,  // measure 22
0010
0000
0010
0000
0010
0000
0000
0020
,  // measure 23
0000
0000
0000
0000
,  // measure 24
0000
0000
0000
0030
0000
0000
0000
2000
,  // measure 25
0000
0000
0000
0000
,  // measure 26
0000
0000
0000
0000
0000
3000
0000
0100
,  // measure 27
0000
0000
0000
0000
0000
0000
0000
0010
,  // measure 28
0000
0000
0000
0000
0000
0000
0000
1000
,  // measure 29
0000
0000
0000
0000
0000
0000
0000
0010
,  // measure 30
0000
0000
0000
0000
0000
0000
0000
0001
,  // measure 31
0000
0000
0000
0010
0000
0100
0000
0000
,  // measure 32
0000
0010
0000
0010
0000
0000
0000
0000
,  // measure 33
0000
0000
0000
0110
0000
0000
0000
0000
,  // measure 34
0000
0000
0000
1000
0000
0000
0000
0000
,  // measure 35
0000
0000
0000
0110
0000
0000
0000
0000
,  // measure 36
0000
0000
0000
0001
0000
0000
0000
0100
,  // measure 37
0000
0100
0000
0000
0000
0000
1000
0000
,  // measure 38
0000
0000
0100
0000
,  // measure 39
0000
1000
0010
0000
,  // measure 40
0010
0000
0010
0100
,  // measure 41
0000
0000
0010
0100
,  // measure 42
0000
0000
0001
0000
,  // measure 43
0010
0200
0000
0300
,  // measure 44
0000
0010
0000
0020
0000
0000
0000
0130
,  // measure 45
0000
0100
0100
0100
,  // measure 46
0200
0000
0000
0300
,  // measure 47
1000
0000
0000
0000
,  // measure 48
0010
0000
0000
0000
,  // measure 49
1000
0000
0000
0000
,  // measure 50
0010
0000
0010
0000
,  // measure 51
0010
0000
0000
0100
,  // measure 52
0000
0010
0100
0000
,  // measure 53
0000
0000
0001
0000
,  // measure 54
0000
0000
0001
0000
,  // measure 55
0000
0000
1000
0000
,  // measure 56
0000
0000
1000
0000
,  // measure 57
0000
0010
0000
0100
,  // measure 58
0000
0001
0000
1000
0000
0001
0000
1000
,  // measure 59
0000
0001
0000
1000
0000
0001
0000
0001
,  // measure 60
0000
1000
0000
1000
0000
0001
0000
0001
,  // measure 61
0000
0010
0000
0010
0000
0001
0000
0001
,  // measure 62
0000
0010
0000
0010
0000
0001
0000
0001
,  // measure 63
0000
1000
0000
1000
0000
0001
0000
0010
,  // measure 64
0000
0001
0000
0010
0000
0100
0000
0100
,  // measure 65
0000
0001
0000
0001
0000
0001
0000
0001
,  // measure 66
0000
0100
0000
0001
0000
0100
0000
0001
,  // measure 67
0000
1000
0000
0001
0000
1000
0000
0001
,  // measure 68
0000
0100
0000
0001
0000
0100
0000
0001
,  // measure 69
0000
0010
0000
0001
0000
0010
0000
0001
,  // measure 70
0000
0001
0000
0100
0000
0001
0000
0001
,  // measure 71
0000
0100
0000
0001
0000
0001
0000
1000
,  // measure 72
0000
0001
0000
0100
0000
0001
0000
0010
,  // measure 73
0000
0001
0000
0001
0000
0001
0000
0001
,  // measure 74
1000
1000
0000
0000
,  // measure 75
0001
0001
1000
1000
,  // measure 76
0010
0000
0000
1000
,  // measure 77
0000
0000
0010
0010
,  // measure 78
0001
1000
0010
1000
,  // measure 79
0100
1000
0010
1000
,  // measure 80
0001
1000
0010
1000
,  // measure 81
0100
0000
1000
0000
0001
0000
1000
1001
,  // measure 82
0000
0000
0000
0000
0000
0010
0000
0001
,  // measure 83
0000
0000
0000
0001
0000
0000
0000
0000
,  // measure 84
0000
0100
0000
0001
0000
0000
0000
0001
,  // measure 85
0000
0000
0000
0000
0000
1000
0000
0010
,  // measure 86
0000
0000
0000
0001
0000
0000
0000
0000
,  // measure 87
0000
0010
0000
0001
0000
0000
0020
0000
,  // measure 88
0000
0000
0000
0000
,  // measure 89
0000
0000
0030
0002
,  // measure 90
0000
0000
0000
0000
,  // measure 91
0000
0000
0003
0001
,  // measure 92
0000
0000
0000
0100
,  // measure 93
0000
0000
0000
1000
,  // measure 94
0000
0000
0000
0100
,  // measure 95
0000
0000
0000
0100
,  // measure 96
0000
0000
0000
0000
0010
0000
0000
0001
,  // measure 97
0000
0010
0000
0000
0000
0100
0000
0000
,  // measure 98
0000
0100
0000
0000
0000
0000
0000
0000
,  // measure 99
0000
1000
0000
0000
0000
0100
0000
0000
,  // measure 100
0000
0100
0000
0000
0000
0000
0000
0000
,  // measure 101
0000
0100
0000
0000
0000
0000
0000
0010
,  // measure 102
0000
0000
0000
0000
0000
0001
0000
0000
,  // measure 103
0000
0000
0000
0001
0000
0000
0000
0000
,  // measure 104
0000
0001
0000
0100
0000
0000
0000
0001
,  // measure 105
0000
0000
0000
1000
0000
1000
0001
0000
,  // measure 106
0000
1000
0001
0000
,  // measure 107
0000
1000
0000
1000
,  // measure 108
1000
2000
0000
0000
0000
3000
0100
0000
,  // measure 109
0100
0200
0000
0300
,  // measure 110
0000
1000
0000
0000
0000
0001
0000
0020
,  // measure 111
0000
0000
0000
0000
0000
0000
0030
1000
,  // measure 112
0000
0000
0000
0000
0000
1000
0000
0000
,  // measure 113
0000
0000
0000
0200
0000
0000
0000
0000
,  // measure 114
0000
0000
0000
0000
0000
0300
0000
0000
,  // measure 115
0000
1001
0000
0000
0000
0000
0000
0000
;

//---------------dance-single - Copied from Copied f----------------
#NOTES:
     dance-single:
     Copied from Copied f:
     Challenge:
     1:
     0.604,0.613,0.678,0.305,0.028,574.000,120.000,54.000,77.000,2.000:
0001
0100
0010
1000
0010
0001
0100
0010
,
0100
0100
0100
0010
0100
1000
0010
0010
,
1010
0001
0100
0001
0100
0100
1000
0010
,
0101
1000
0001
0100
0100
0001
0100
0010
,
0002
0000
0010
0100
0100
1000
1003
0000
,
0000
0000
0101
1010
1010
1010
0000
0000
,
0010
1010
0000
0000
010M
1100
00M0
0000
,
M010
0000
01M0
0000
10M0
0000
0M01
1000
,
01M1
0000
1M00
1000
0100
0100
0010
0001
,
0010
0000
0001
0010
0101
0000
1100
0100
,
1100
0010
0002
0000
0100
0000
0003
1010
,
1000
0001
0001
0100
0000
0011
0011
1000
,
1000
0010
0000
0101
0000
0001
0000
1010
,
0110
0101
0000
1000
0000
0010
1000
1001
,
0000
0100
0000
1001
0000
0010
1000
1000
,
0000
0100
0000
0001
0100
0010
0100
1000
,
0000
0010
0001
0001
0001
0100
1000
0010
,
0000
1000
0000
0110
0000
1001
0000
0011
,
0000
1000
0000
0000
0000
1000
1000
0100
,
1010
1000
1000
0110
0100
0000
1010
0010
,
0001
0000
0000
1000
0000
0000
1010
0010
,
0001
0010
0000
0101
0010
0000
1000
0022
,
0000
0000
0000
0030
0000
0200
0000
0000
,
0000
0000
0303
0010
0000
0010
0000
2010
,
0020
0000
0000
0000
0000
3030
0000
0220
,
0000
0000
0000
0000
0330
0000
0000
0101
,
1000
1000
0100
0000
0100
0100
0010
0010
,
0001
0000
0010
1010
1000
0001
0100
1001
,
0010
0000
0100
0100
0001
0010
1000
0001
,
0010
1000
0001
1000
0001
1100
0001
0001
,
0000
0100
0001
0100
0001
0100
0001
1000
,
0000
0010
0100
0010
1000
0010
0100
0000
,
0000
0001
0010
0010
0100
0100
1000
0010
,
0000
0100
0001
1001
0010
1001
0100
0001
,
0000
0010
1000
0100
0100
0010
0010
1000
,
1000
1000
0000
0M02
0000
0100
0000
0M00
,
0000
0103
0000
1M00
0000
1000
0000
0000
,
0000
0000
0000
1000
0100
0010
0001
0000
0000
0010
0000
0000
,
0000
1000
0101
0010
0010
0000
1001
0000
,
1000
0000
0000
0000
0000
0000
0001
0000
0010
0000
0100
0000
1000
0000
0000
0000
0000
0000
0100
0000
0000
0101
0000
0000
,
0000
0000
1000
0000
0110
0000
0100
1000
,
0001
1000
0110
0000
0001
0010
0010
0010
,
0010
0100
2100
0200
0000
0000
0000
3301
,
0100
0110
0100
0020
0000
0000
0000
0130
,
0100
0100
0100
0000
0000
0101
0110
1100
,
0202
0000
0000
0303
,
1010
0100
0100
0100
1010
0000
1001
0000
,
0000
0100
0110
0100
0001
0000
1000
1000
,
1000
M1M1
MMM1
1MM1
,
MMMM
1MMM
MMMM
MM1M
,
MMM1
1MMM
M1MM
M1M1
,
1MMM
MM1M
1MM1
1M1M
,
MMMM
0000
M1M1
0000
0000
0000
0100
1000
,
0010
1000
0001
1000
0101
1000
1000
1000
,
1000
1000
1100
0000
0101
0000
0010
0000
,
1001
0011
1000
0110
,
0001
0000
0010
1000
1000
1000
0110
0000
,
0000
0201
0000
1000
0000
0001
0010
0001
,
0010
0301
0000
1020
0000
0001
0000
0001
,
0000
1030
0000
0210
0000
0001
0010
0001
,
0000
0310
0000
0120
0000
0001
1000
0001
,
0000
0130
0000
2010
0000
0001
0010
3001
,
0000
1020
0000
0100
0000
0001
0000
0001
,
0000
0031
0000
2010
0000
3100
0000
1010
,
0000
0201
0010
0001
0010
0001
0010
0301
,
0000
2100
0000
0001
0000
3100
0000
0201
,
0000
1000
0000
0001
0000
1300
0000
0021
,
0000
0100
0000
0001
0000
0130
0000
2001
,
0100
0010
0100
0001
0100
3010
0100
0201
,
0000
0301
0000
2100
0000
0001
0010
0001
,
0000
0100
0000
0001
0010
3001
0000
1M2M
,
0000
0001
0000
0130
0000
2001
0000
0M1M
,
0000
0001
3000
0021
0000
0001
0000
0031
,
1000
0100
1000
0020
0000
2000
0000
0030
,
3001
0000
0001
0000
1000
0010
1000
0100
,
0010
0201
0000
0000
0000
0300
2000
0020
,
0000
0000
3030
0000
0011
0100
1010
0000
,
0101
0000
1010
0000
0011
0100
1010
0000
,
0102
0000
1000
0000
0010
0100
1003
0000
,
0001
0000
1000
0000
0010
0100
1000
0000
,
0101
0000
0000
0000
0000
0000
1000
0000
0000
0000
0000
0000
0001
0000
0010
0000
0100
0000
1000
0000
0000
1001
0000
0000
,
0000
1000
0000
1000
0100
0010
0000
0001
,
0000
1000
1000
0001
0100
0001
0000
1000
,
0000
0100
0000
0001
0100
1000
1000
0001
,
0000
0000
0000
0000
0000
0000
0000
0000
0000
0001
0100
0000
0000
0000
0010
1000
0000
0000
0000
0000
0000
0011
0000
0000
,
0000
0000
1000
0011
1000
0100
0000
0010
,
0100
0010
1000
0001
0100
0100
0020
0000
,
0000
0001
0000
0001
2000
0000
0000
0000
,
0000
0000
3000
0001
0030
0001
0002
0000
,
0000
1000
0000
1000
0000
1000
0200
0000
,
0000
0000
0000
0000
0303
0000
0001
0010
,
0001
0000
1000
0100
1000
0001
0100
0000
,
0010
0001
0000
0100
0010
0000
1100
0000
,
1000
0000
0000
0100
0000
0000
1001
0000
0000
0010
0000
0000
0001
0000
0000
0000
0000
0000
1000
0000
0100
0000
0010
0000
,
0001
0000
0001
1000
0001
0000
0200
0000
,
0002
0303
2020
0030
,
3000
0010
1001
0101
0000
1000
1001
0100
,
0000
1001
1001
0100
0000
1010
1001
0001
,
0000
1100
1001
0000
0000
0001
1001
0001
,
0000
0000
1001
1000
0010
1000
1001
0000
,
0000
0100
1001
0000
1000
0000
0100
0010
,
0001
0000
0001
0000
0001
0001
0100
0000
,
1000
0000
0010
0001
1000
0000
1000
0000
,
1000
0001
0010
0100
1000
0000
0100
0000
,
1100
0000
0100
0000
1000
0000
0001
0100
,
0010
0001
2000
0000
0002
0000
0000
0000
,
0000
0000
3000
0000
1013
0000
10M0
0001
,
1M00
2000
00M0
0000
0M00
3000
00M1
0000
,
010M
02M0
000M
M310
,
00M0
1100
0000
0000
0000
0011
0000
0020
,
0000
0200
0000
0000
0000
0000
0330
1000
,
0010
0101
0010
0000
1000
0010
0010
0100
,
0001
1010
0010
0200
0020
0000
0000
0000
,
0000
0000
0000
0000
0000
0300
0030
0MM0
,
M11M
1001
0000
0000
0000
0000
0000
0000
;
